#TITLE:AKB48;
#SUBTITLE:Dead Master;
#ARTIST:AKB48;
#TITLETRANSLIT:;
#SUBTITLETRANSLIT:;
#ARTISTTRANSLIT:;
#CREDIT:;
#BANNER:bn.png;
#BACKGROUND:bg.png;
#LYRICSPATH:;
#CDTITLE:cd.png;
#MUSIC:AKB48 clipvideo.mp3;
#OFFSET:-0.453;
#SAMPLESTART:34.847;
#SAMPLELENGTH:12.000;
#SELECTABLE:YES;
#BPMS:0.000=174.446,247.000=140.006,272.000=174.446;
#STOPS:;
#BGCHANGES:0.000=AKB48 clipvideo.avi=1.000=1=1=0,
99999=-nosongbg-=1.000=0=0=0 // don't automatically add -songbackground-
;
// cache tags:
#FIRSTBEAT:1.750;
#LASTBEAT:416.250;
#SONGFILENAME:Songs/sdo pack 6/AKB48 clipvideo/AKB48 clipvideo.sm;
#HASMUSIC:1;
#HASBANNER:1;
#MUSICLENGTH:150.073;
// end cache tags

//---------------dance-single - ----------------
#NOTES:
     dance-single:
     :
     Hard:
     1:
     0.946,1.000,1.000,0.360,1.000,706.000,227.000,54.000,0.000,8.000:  // measure 1
0000
0000
0000
0000
0000
0000
0000
2000
0000
0000
0000
0000
3000
0000
0010
0000
,  // measure 2
0000
0100
0000
0000
0010
0000
1000
0000
0001
0000
0000
0100
0010
0000
0100
0000
,  // measure 3
0010
0000
1000
0001
0000
0100
0000
0020
0000
0000
0000
0000
0000
0000
0000
0030
,  // measure 4
0000
0100
0000
0100
0001
1000
0000
0010
0000
0100
0010
0000
0100
0000
0001
0000
,  // measure 5
1000
0010
0000
0100
0000
0001
0100
0010
1000
0000
0000
0010
0000
0100
0000
0001
,  // measure 6
0100
0000
0010
0000
1000
0000
0000
0001
0100
0010
0000
1001
0000
0110
0000
1001
,  // measure 7
0000
0110
0000
1001
0000
0110
0000
0000
0000
0000
0002
0000
0000
0000
0000
0000
,  // measure 8
0003
0110
0110
1001
0110
1001
0000
0110
,  // measure 9
0000
0000
1001
0000
0000
0010
0100
0000
0100
0001
0000
0000
1010
0000
0000
0000
,  // measure 10
0101
0000
0000
0000
0110
0000
0000
0000
1001
0000
0110
0000
1001
0000
0010
0100
,  // measure 11
0000
0101
0000
0000
0020
0000
0000
0000
0230
0000
0000
0000
0000
0300
0010
0000
,  // measure 12
0010
1000
0000
0100
0000
0020
0000
0000
0000
0000
0000
0030
0100
0000
0100
1000
,  // measure 13
0100
0010
0000
0001
0000
0000
0000
0100
0020
0000
0000
0000
0000
0000
0000
0130
,  // measure 14
0000
0100
1000
0100
0010
0000
0002
0000
0000
0000
0000
0000
0000
0003
0000
0100
,  // measure 15
0000
1000
0100
0010
0000
0010
0000
0000
0200
0000
0000
0000
0000
0000
0310
0000
,  // measure 16
0010
0001
1010
0000
0000
0100
0020
0000
0000
0000
0000
0000
0030
0000
0100
0000
,  // measure 17
0100
1100
0010
0000
0000
0011
0000
0000
0100
0010
0000
0010
0100
0000
1000
0100
,  // measure 18
0000
0000
0010
0000
0000
0000
0200
0000
0000
0000
0000
0000
0000
0000
0000
0300
,  // measure 19
0010
0010
0000
0001
0010
0000
1000
0000
0200
0000
0000
0000
0000
0000
0000
0000
,  // measure 20
0300
0010
0000
0001
0010
0000
1000
0100
0000
0020
0000
0000
0000
0000
0030
0100
,  // measure 21
0000
0100
1000
0100
0010
0000
0001
0000
0010
0100
0000
0000
0100
0010
0000
1000
,  // measure 22
0000
0100
0010
0010
0000
0001
0000
0200
0000
0000
0000
0000
0300
0000
0010
0000
,  // measure 23
0010
0001
1000
0010
0000
0100
0000
0010
0010
0000
0100
0000
0010
0001
0000
0100
,  // measure 24
0010
0000
1000
0010
0000
0100
0001
0000
0100
0010
0000
0100
0010
0000
0001
1000
,  // measure 25
0000
0010
0000
0100
0010
0000
0000
0101
0000
0000
1010
0000
0000
1001
0000
0110
,  // measure 26
0000
1101
0000
0000
0110
0000
0101
0000
0000
0000
0110
0000
0000
1001
0000
0000
,  // measure 27
0000
0110
0000
0001
1010
0000
0001
0100
0000
0010
0000
0010
0000
1000
0100
0000
,  // measure 28
0000
0020
0000
0000
0030
0000
0100
0000
0100
0010
0001
0000
0010
0000
1000
0100
,  // measure 29
0010
0000
0010
0000
0100
0010
0001
0010
0200
0000
0000
0000
0000
0000
0000
0000
,  // measure 30
0000
0310
0001
0000
1010
0000
0100
0020
0000
0000
0000
0000
0030
0100
0000
0100
,  // measure 31
0000
0010
0000
0000
1000
0100
0010
0001
0010
0000
0100
1000
0000
0100
0010
0000
,  // measure 32
0010
0200
0000
0000
0000
0000
0300
0010
0000
0001
0010
1000
0100
0010
0000
0010
,  // measure 33
0000
0001
0010
0000
0100
1000
0100
0000
0020
0000
0000
0000
0000
0000
0000
0030
,  // measure 34
0100
0000
1000
0100
0000
0010
0001
0010
0000
0000
0100
0010
0000
0010
0000
0100
,  // measure 35
0000
0010
0000
0000
1000
0100
0000
0000
0000
0020
0000
0000
0000
0000
0030
0100
,  // measure 36
0000
0100
1000
0110
0000
0001
0010
0000
0200
0000
0000
0000
0000
0300
0000
0010
,  // measure 37
0000
0011
1000
0000
0000
0110
0000
0000
0200
0000
0000
0000
0000
0000
0000
0300
,  // measure 38
0010
0000
0001
0010
1000
0100
0000
0000
0200
0000
0000
0000
0000
0300
0000
0010
,  // measure 39
0000
0001
0010
1000
0100
0000
0010
0010
0000
0100
0000
0002
0000
0000
0000
0000
,  // measure 40
0000
0000
0003
0100
0000
0010
0000
1000
0100
0020
0000
0000
0000
0000
0030
0000
,  // measure 41
0000
0100
0100
0000
1010
0000
0001
0000
0000
0110
0000
0000
0000
0101
0000
0000
,  // measure 42
1010
0000
0101
0110
1001
0000
0110
0001
,  // measure 43
1000
0010
0000
0000
0000
0101
0000
0000
0110
0000
1001
0000
0110
0000
1001
0000
,  // measure 44
0110
0000
1001
0000
0010
0100
0001
0100
0000
1010
0000
0000
1001
0000
0000
0110
,  // measure 45
0101
0000
1000
0010
0101
0000
0010
1000
0001
0100
0010
0000
1001
0000
0110
0000
,  // measure 46
1001
0000
0000
0110
0001
1000
0010
0100
0001
0100
1001
0100
0000
1010
0000
0000
,  // measure 47
0000
1001
0000
0110
0000
1101
0000
0000
0110
0000
1001
0000
0110
0000
0101
0000
,  // measure 48
0101
0000
0000
1010
0000
1010
0000
0000
0101
0000
0110
0000
1000
0001
0110
0000
,  // measure 49
0000
1001
0000
0110
0001
1000
0010
0100
1001
0000
0110
0000
0000
1002
0000
1000
,  // measure 50
0000
0003
0110
0000
1001
0110
0000
0001
0100
0000
0110
0000
1001
0000
0000
0000
,  // measure 51
0110
0000
1001
0000
0000
0110
0001
1000
0000
0110
0000
0000
1001
0000
0101
0000
,  // measure 52
0000
1010
0000
1001
0000
0000
0110
0000
1101
0000
1000
0000
0010
0100
0101
0000
,  // measure 53
0000
1010
0000
0101
0000
1010
0001
0000
0110
0000
0101
0000
0000
1001
0000
1001
,  // measure 54
0000
0010
0100
0110
0000
0000
0001
0001
0000
0100
0010
0000
0000
1010
0000
0000
,  // measure 55
0000
0101
0000
0000
0110
0000
1001
0000
0000
0010
0100
0101
0000
0010
1000
0010
,  // measure 56
1000
0000
0000
0101
0000
0101
0000
0000
0020
0000
0000
0000
0030
0100
0000
0000
,  // measure 57
0000
0002
0000
0000
0000
2000
0003
0000
0000
0000
3020
0000
0000
0200
0030
0000
,  // measure 58
0000
0300
0020
0000
0000
0030
0100
0000
0000
0002
0000
0000
0000
1013
0000
0000
,  // measure 59
0000
0101
0000
0000
0000
1010
0000
0000
0000
0101
0000
0000
0000
1010
0001
1000
,  // measure 60
0000
0000
0110
0000
0101
0000
0000
1010
0000
0000
1101
0000
0000
1001
0000
0110
,  // measure 61
0000
0000
0000
0101
0000
1001
0000
0000
0110
0000
0110
0000
1001
0000
1001
0000
,  // measure 62
0000
0110
0000
0000
0000
0100
0001
0000
0000
0000
0000
1001
0000
0000
0010
0000
,  // measure 63
0000
0000
0100
0010
0000
0001
0000
1000
0000
0000
0010
0010
0000
0000
0100
0000
,  // measure 64
0001
1000
0000
0010
0100
0000
0000
0001
0000
0000
1000
0000
0000
0010
0000
0100
,  // measure 65
0001
0000
1100
0000
0010
0010
0200
0000
0000
0000
0000
0300
0001
0000
0001
1000
,  // measure 66
0000
0010
0000
0100
0000
0001
0100
0000
0010
1000
0001
0000
0000
0100
0000
0010
,  // measure 67
0000
1000
0001
0000
0100
0010
0000
1000
0002
0000
0000
0103
0000
0000
0010
0000
,  // measure 68
1000
0000
0000
0100
0001
0000
0001
1000
0000
0010
0010
0000
0010
0000
0010
0000
,  // measure 69
0000
0000
0001
0000
0000
1000
0000
0010
0000
0000
0100
0001
0100
0000
0010
1000
,  // measure 70
0000
0001
0000
0100
0000
0010
0100
0010
0000
1001
0000
0000
0110
0000
0101
0000
,  // measure 71
0010
1000
0000
0000
0000
0101
0000
0000
0000
1010
0000
0000
0001
0100
0000
0110
,  // measure 72
0000
1001
0000
0000
0110
0000
0101
0000
1001
0000
0000
0010
0100
0000
0101
0000
,  // measure 73
0000
1010
0000
0000
0000
0001
0100
0101
0000
0000
1010
0000
0000
0101
0000
0110
,  // measure 74
0000
1001
0000
0110
0000
0000
0101
0000
0101
0000
0000
1010
0000
0001
0000
1000
,  // measure 75
0010
0101
0000
0101
0000
1010
0000
0101
,  // measure 76
0000
0000
0110
0000
0000
1001
0000
1001
0000
0110
0000
0101
0000
1001
0000
0000
,  // measure 77
0000
0110
0000
0000
0000
0101
0000
1001
0000
0000
0110
0000
0101
0000
1010
0000
,  // measure 78
0101
0000
0000
0000
0101
0000
0101
0000
0000
0010
1000
0000
1001
0000
0010
0100
,  // measure 79
0001
0101
0000
0000
0000
0010
1000
0000
0000
0101
0000
0101
0000
0000
1010
0000
,  // measure 80
0000
0000
0101
0000
0000
0000
1010
0010
0100
0000
0000
0101
0000
0101
0000
0000
,  // measure 81
0000
0020
0000
0000
0000
0000
0230
0000
0000
0000
0302
0000
0000
0000
2000
0003
,  // measure 82
0000
0000
0020
3000
0000
0000
0000
0230
0000
0000
0002
0300
0000
0000
0103
0000
,  // measure 83
0000
0000
0020
0000
0000
0000
2000
0030
0000
0000
3200
0000
0000
0300
0010
0000
,  // measure 84
0000
0100
0000
0000
0000
0001
0000
0001
1000
0000
0010
0000
0100
0001
0000
0101
,  // measure 85
0000
0000
0000
1010
0000
0000
0002
0000
0000
0003
0110
0000
0110
0000
1000
0100
,  // measure 86
0000
0010
0010
0000
0100
0000
0001
0000
0010
0000
0100
0000
0120
0000
0000
0000
,  // measure 87
0030
0010
0000
0010
0000
0000
0100
0000
0100
0000
1000
0000
0100
0010
0010
0000
,  // measure 88
0001
0010
0000
0000
0100
1000
0100
0000
0010
0000
0010
0000
0000
0100
0000
0100
,  // measure 89
0000
0100
0000
0010
0000
0002
0000
0000
0010
1003
0100
0010
0000
0010
0100
0000
,  // measure 90
0001
0000
1000
0000
1000
0000
0100
0000
0100
0100
0000
0000
0020
0000
0000
0000
,  // measure 91
0000
0000
0000
0130
0000
0100
0000
0001
0000
0000
1011
0000
0000
0110
0000
0001
,  // measure 92
0100
0000
0110
0000
0000
1010
0000
0101
0000
0010
0100
0000
0020
0000
0000
0000
,  // measure 93
0000
0030
0000
0000
0101
0000
0101
0000
1010
0000
0110
0000
0000
0101
0000
0110
,  // measure 94
0000
1001
0000
0110
0000
0101
0000
0001
0000
0001
0000
0000
0020
0000
0000
0000
,  // measure 95
0000
0000
0030
0100
0000
0100
0010
1001
0000
0100
0010
0000
0101
0000
1010
0000
,  // measure 96
0101
0000
0110
0000
0000
1001
0001
0100
0000
0000
0010
0000
0000
0200
0000
0000
,  // measure 97
0000
0000
0000
0000
,  // measure 98
0000
0000
0000
0302
0000
0000
0000
0000
0000
0000
0000
0000
0000
0000
0000
0000
,  // measure 99
0003
0000
0000
0110
0000
0000
0000
0000
0000
1110
0000
0000
0000
0000
0000
0111
,  // measure 100
0000
0000
0000
0000
0000
0110
0000
0000
0000
0100
0010
0000
0000
0000
0110
1000
,  // measure 101
0000
0000
0000
0101
0000
0000
1010
0000
0000
0000
0101
0000
0000
0000
1010
0000
,  // measure 102
0000
0000
0101
0000
0000
0000
1010
0000
0001
1000
0010
0100
0101
0000
0000
0000
,  // measure 103
0000
1001
0000
1001
0000
0000
0000
0110
0000
0000
0101
0000
1010
0000
0101
0000
,  // measure 104
0010
1000
0001
0110
0000
0101
0000
0000
0100
0000
0002
0000
0000
0000
0000
0000
,  // measure 105
0000
0003
0000
0000
0000
0000
0000
0000
0000
0000
0000
0000
0000
0000
0000
0000
;
